Malayalam mirzapur The Empty Man 2020 Married at First Sight S11E16 Superstore S06E01 The Outpost S03E04 Big Brother S22E37 the sister The Goldbergs S08E03 2020  ethd Keeping Up with the Kardashians S19E06 ettv ddr Star Trek Discovery S03E02 complete  star trek  rq.mp4 This IS Us The Walking Dead mirzapur 2 Mandalorian S02E01 Hindi Life Below Zero s14e09 ita supernatural the boys Next S01E03 Star Trek discovery s03e03 Holidate 2020 neXt  hindi 2020 Roald Dahls The Witches 2020 The New Mutants 2020 etmovies fargo The Craft None The Mandalorian  marvel week scam 1992 Star Trek Discovery  etrg spell 2020 Borat Subsequent Moviefilm 2020 The Real Housewives of Orange County S15E03 on the rocks 2020 Love and Monsters 2020 Honest Thief 2020 xxx  The Trial of the Chicago 7 2020 tenet WWE mandalorian Mulan 2020 evo yts the masked singer s04e05 Supernatural S15E17 Married at First Sight S11E17 The Undoing S01E01 this is us s05e02 Greenland 2020 Mirzapur season 2 The Mandalorian S02E01 archer truth seekers Unhinged 2020 The Witches 2020 This Is Us S05E01 taish The Conners S03E02 Tenet 2020 
Warning! Use a VPN When Downloading Torrents!
Your IP Address is 3.89.87.12,5.150.254.212. Location Sweden
Your Internet Provider can see when you download torrents! Hide your IP Address with a VPN
ETTV warns: You should use VPN to hide your torrenting. HIDE ME NOW
ETTV Recommended TV Shows
The.Amazing.Race.S32E03.WEB.h264-BAE torrent
The.Sister.S01E04.HDTV.x264-KETTLE torrent
The.Daily.Show.2020.10.29.WEB.h264-BAE torrent
The.Mandalorian.S02E01.WEBRip.x264-ION10 torrent
American.Ninja.Warrior.S12E07.WEB.h264-BAE torrent
American.Housewife.S05E01.WEB.h264-BAE torrent

ETTV Recommended SD
Vitals.2019.HDRip.XviD.AC3-EVO torrent
Torn.from.Innocence.2020.HDRip.XviD.AC3-EVO torrent
The.Christmas.Ride.2020.HDRip.XviD.AC3-EVO torrent
The.Crumbs.2020.HDRip.XviD.AC3-EVO torrent

ETTV Recommended HD
Once.Upon.a.Snowman.2020.DSNYP.1080p.WEBRip.X264.Atmos-EVO torrent
Captain America The First Avenger 2011 BluRay 1080p DTS AC3 x264-3Li torrent
Bronx (2020) Rogue City. FullHD 1080p.H264 Ita Fre AC3 5.1 Multisub MIRCrew torrent
Trick Or Treat 1, 2, 3 - Horror 1986-2019 Eng Multi-Subs 1080p [H264-mp4] torrent

ETTV Recommended UHD
Back.to.the.Future.1985.MULTi.2160p.Bluray.HDR.Atmos.7.1.HEVC-DDR.mkv torrent
Back.to.the.Future.Part.II.1989.MULTi.2160p.Bluray.HDR.Atmos.7.1.HEVC-DDR.mkv torrent
The.Boys.in.the.Band.2020.4K.MULTI.2160p.HDR.WEB.DDP.5.1.HEVC-DDR.mkv torrent
The.Binding.2020.4K.MULTI.2160p.SDR.WEB.DDP.5.1.HEVC-DDR.mkv torrent
Secret.Society.of.Second.Born.Royals.2020.MULTI.2160p.HDR.WEB.EAC3.5.1.HEVC-DDR.mkv torrent
Back.to.the.Future.Part.III.1990.MULTi.2160p.Bluray.HDR.HEVC.Atmos.7.1.HEVC-DDR.mkv torrent

ETTV Recommended Cam
The.Broken.Hearts.Gallery.2020.HDCAM.x264.LLG torrent
The Secrets We Keep 2020 HDCAM-C1NEM4 torrent

ETTV Recommended Foreign
Silent Night, Deadly Night 5 : The Toy Maker (1991) 720p WEB-DL x264 Eng Subs [Dual Audio] [Hindi DD 2.0 - English 2.0] Exclusive By -=!Dr.STAR!=- torrent
Toy Soldiers (1984) 720p BluRay x264 Eng Subs [Dual Audio] [Hindi DD 2.0 - English 2.0] Exclusive By -=!Dr.STAR!=- torrent
Most Likely to Die (2015) UNRATED 720p WEBRip x264 Eng Subs [Dual Audio] [Hindi DD 2.0 - English 5.1] Exclusive By -=!Dr.STAR!=- torrent
Blithe Spirit 1945 x264 720p BluRay Dual Audio English Hindi GOPI SAHI torrent
Kiss Me Deadly (2008) UNCUT 720p BluRay x264 Eng Subs [Dual Audio] [Hindi DD 2.0 - English 2.0] Exclusive By -=!Dr.STAR!=- torrent
Behemoth (2011) 720p BluRay x264 Eng Subs [Dual Audio] [Hindi DD 2.0 - English 5.1] Exclusive By -=!Dr.STAR!=- torrent

ETTV Recommended Music
Pantera - Vulgar Display Of Power (1992) (PBTHAL LP 24-96 FLAC) vtwin88cube torrent
Busta Rhymes - Extinction Level Event 2: The Wrath of God (2020) Mp3 320kbps [PMEDIA] ⭐️ torrent
Tori Kelly - A Tori Kelly Christmas (2020) Mp3 320kbps [PMEDIA] ⭐️ torrent
U2 - 18 Singles YERAYCITO MASTER SERIES SE torrent
Paul Simon - Graceland YERAYCITO MASTER SERIES SE torrent
The Midnight - Discography (2014-2020) (320) [DJ] torrent


Download Torrent "Sinister 2 (2015) (1080p BDRip x265 10bit DTS-HD MA 5.1 - ArcX)[TAoE].mkv"

IMDB Details
Description:

A young mother and her twin sons move into a rural house that's marked for death.

Genre:

Horror, Mystery, Thriller

Download Torrent (Magnet)
Download Torrent (File)

Seeds: 19
Leechers: 25

Uploaded by:
Goki


Category:
Movies > HEVC/x265 (Super High Quality, Small size, high CPU usage)


Details
Title:Sinister 2 (2015) (1080p BDRip x265 10bit DTS-HD MA 5.1 - ArcX)[TAoE].mkv
Description:

Media Information

General
Unique ID                                : 274622179419539013217421894299258186361 (0xCE9A4ED0CF85C045B3BCB82EE4EFEA79)
Complete name                            : Sinister 2 (2015) (1080p BDRip x265 10bit DTS-HD MA 5.1 - ArcX)[TAoE].mkv
Format                                   : Matroska
Format version                           : Version 4
File size                                : 4.68 GiB
Duration                                 : 1 h 36 min
Overall bit rate mode                    : Variable
Overall bit rate                         : 6 922 kb/s
Movie name                               : Sinister 2 (2015) (1080p BDRip x265 10bit DTS-HD MA 5.1 - ArcX)[TAoE].mkv
Writing application                      : Lavf58.29.100
Writing library                          : Lavf58.29.100
ErrorDetectionType                       : Per level 1

Video
ID                                       : 1
Format                                   : HEVC
Format/Info                              : High Efficiency Video Coding
Format profile                           : Main [email protected]@Main
Codec ID                                 : V_MPEGH/ISO/HEVC
Duration                                 : 1 h 36 min
Bit rate                                 : 3 016 kb/s
Width                                    : 1 920 pixels
Height                                   : 1 080 pixels
Display aspect ratio                     : 16:9
Frame rate mode                          : Constant
Frame rate                               : 24.000 FPS
Color space                              : YUV
Chroma subsampling                       : 4:2:0
Bit depth                                : 10 bits
Bits/(Pixel*Frame)                       : 0.061
Stream size                              : 2.04 GiB (44%)
Title                                    : Encoded by ArcX for TAoE
Writing library                          : x265 3.2.1+1-b5c86a64bbbe:[Linux][GCC 9.2.1][64 bit] 10bit
Encoding settings                        : cpuid=1111039 / frame-threads=2 / wpp / no-pmode / no-pme / no-psnr / no-ssim / log-level=2 / input-csp=1 / input-res=1920x1080 / interlace=0 / total-frames=0 / level-idc=0 / high-tier=1 / uhd-bd=0 / ref=4 / no-allow-non-conformance / no-repeat-headers / annexb / no-aud / no-hrd / info / hash=0 / no-temporal-layers / open-gop / min-keyint=24 / keyint=250 / gop-lookahead=0 / bframes=8 / b-adapt=2 / b-pyramid / bframe-bias=0 / rc-lookahead=80 / lookahead-slices=4 / scenecut=40 / radl=0 / no-splice / no-intra-refresh / ctu=64 / min-cu-size=8 / no-rect / no-amp / max-tu-size=32 / tu-inter-depth=1 / tu-intra-depth=1 / limit-tu=0 / rdoq-level=2 / dynamic-rd=0.00 / no-ssim-rd / signhide / no-tskip / nr-intra=0 / nr-inter=0 / no-constrained-intra / no-strong-intra-smoothing / max-merge=3 / limit-refs=3 / limit-modes / me=3 / subme=5 / merange=57 / temporal-mvp / no-hme / weightp / no-weightb / no-analyze-src-pics / deblock=0:0 / sao / no-sao-non-deblock / rd=4 / selective-sao=4 / no-early-skip / rskip / no-fast-intra / no-tskip-fast / no-cu-lossless / no-b-intra / no-splitrd-skip / rdpenalty=0 / psy-rd=1.30 / psy-rdoq=2.00 / no-rd-refine / no-lossless / cbqpoffs=0 / crqpoffs=0 / rc=crf / crf=18.0 / qcomp=0.60 / qpstep=4 / stats-write=0 / stats-read=0 / ipratio=1.40 / pbratio=1.30 / aq-mode=4 / aq-strength=1.10 / cutree / zone-count=0 / no-strict-cbr / qg-size=32 / no-rc-grain / qpmax=69 / qpmin=0 / no-const-vbv / sar=1 / overscan=0 / videoformat=5 / range=0 / colorprim=2 / transfer=2 / colormatrix=2 / chromaloc=0 / display-window=0 / cll=0,0 / min-luma=0 / max-luma=1023 / log2-max-poc-lsb=8 / vui-timing-info / vui-hrd-info / slices=1 / no-opt-qp-pps / no-opt-ref-list-length-pps / no-multi-pass-opt-rps / scenecut-bias=0.05 / no-opt-cu-delta-qp / no-aq-motion / no-hdr / no-hdr-opt / no-dhdr10-opt / no-idr-recovery-sei / analysis-reuse-level=5 / scale-factor=0 / refine-intra=0 / refine-inter=0 / refine-mv=1 / refine-ctu-distortion=0 / no-limit-sao / ctu-info=0 / no-lowpass-dct / refine-analysis-type=0 / copy-pic=1 / max-ausize-factor=1.0 / no-dynamic-refine / no-single-sei / no-hevc-aq / no-svt / no-field / qp-adaptation-range=1.00
Default                                  : No
Forced                                   : No
Color range                              : Limited

Audio
ID                                       : 2
Format                                   : DTS XLL
Format/Info                              : Digital Theater Systems
Commercial name                          : DTS-HD Master Audio
Codec ID                                 : A_DTS
Duration                                 : 1 h 36 min
Bit rate mode                            : Variable
Bit rate                                 : 3 832 kb/s
Channel(s)                               : 6 channels
Channel layout                           : C L R Ls Rs LFE
Sampling rate                            : 48.0 kHz
Frame rate                               : 93.750 FPS (512 SPF)
Bit depth                                : 24 bits
Compression mode                         : Lossless
Stream size                              : 2.59 GiB (55%)
Language                                 : English
Default                                  : Yes
Forced                                   : No

Text #1
ID                                       : 3
Format                                   : PGS
Codec ID                                 : S_HDMV/PGS
Codec ID/Info                            : Picture based subtitle format used on BDs/HD-DVDs
Duration                                 : 1 h 32 min
Bit rate                                 : 19.4 kb/s
Count of elements                        : 1216
Stream size                              : 12.9 MiB (0%)
Title                                    : Danish
Language                                 : Danish
Default                                  : No
Forced                                   : No

Text #2
ID                                       : 4
Format                                   : PGS
Codec ID                                 : S_HDMV/PGS
Codec ID/Info                            : Picture based subtitle format used on BDs/HD-DVDs
Duration                                 : 1 h 32 min
Bit rate                                 : 14.1 kb/s
Count of elements                        : 1216
Stream size                              : 9.34 MiB (0%)
Title                                    : Finnish
Language                                 : Finnish
Default                                  : No
Forced                                   : No

Text #3
ID                                       : 5
Format                                   : PGS
Codec ID                                 : S_HDMV/PGS
Codec ID/Info                            : Picture based subtitle format used on BDs/HD-DVDs
Duration                                 : 1 h 32 min
Bit rate                                 : 17.8 kb/s
Count of elements                        : 1208
Stream size                              : 11.8 MiB (0%)
Title                                    : Norwegian
Language                                 : Norwegian
Default                                  : No
Forced                                   : No

Text #4
ID                                       : 6
Format                                   : PGS
Codec ID                                 : S_HDMV/PGS
Codec ID/Info                            : Picture based subtitle format used on BDs/HD-DVDs
Duration                                 : 1 h 32 min
Bit rate                                 : 19.6 kb/s
Count of elements                        : 1210
Stream size                              : 13.0 MiB (0%)
Title                                    : Swedish
Language                                 : Swedish
Default                                  : No
Forced                                   : No

Menu
00:00:00.000                             : :Chapter 01
00:13:08.166                             : :Chapter 02
00:25:17.583                             : :Chapter 03
00:36:24.125                             : :Chapter 04
00:48:48.083                             : :Chapter 05
01:00:53.333                             : :Chapter 06
01:12:35.625                             : :Chapter 07
01:24:44.916                             : :Chapter 08

Source Information

General
Unique ID                                : 19129086782777449554039942343198139938 (0xE6420CB72BDE04C887A626307DA6622)
Complete name                            : Sinister.2.2015.BluRay.1080p.DTS-HD.MA.5.1.AVC.REMUX-FraMeSToR.mkv
Format                                   : Matroska
Format version                           : Version 4
File size                                : 14.4 GiB
Duration                                 : 1 h 36 min
Overall bit rate mode                    : Variable
Overall bit rate                         : 21.4 Mb/s
Movie name                               : Sinister 2
Encoded date                             : UTC 2015-12-16 01:59:23
Writing application                      : mkvmerge v8.6.1 ('Flying') 64bit
Writing library                          : libebml v1.3.3 + libmatroska v1.4.4

Video
ID                                       : 1
Format                                   : AVC
Format/Info                              : Advanced Video Codec
Format profile                           : [email protected].1
Format settings                          : CABAC / 3 Ref Frames
Format settings, CABAC                   : Yes
Format settings, Reference frames        : 3 frames
Format settings, GOP                     : M=3, N=12
Codec ID                                 : V_MPEG4/ISO/AVC
Duration                                 : 1 h 36 min
Bit rate mode                            : Variable
Bit rate                                 : 17.4 Mb/s
Maximum bit rate                         : 35.0 Mb/s
Width                                    : 1 920 pixels
Height                                   : 1 080 pixels
Display aspect ratio                     : 16:9
Frame rate mode                          : Constant
Frame rate                               : 24.000 FPS
Standard                                 : NTSC
Color space                              : YUV
Chroma subsampling                       : 4:2:0
Bit depth                                : 8 bits
Scan type                                : Progressive
Bits/(Pixel*Frame)                       : 0.351
Stream size                              : 11.8 GiB (82%)
Default                                  : No
Forced                                   : No
Color range                              : Limited
Color primaries                          : BT.709
Transfer characteristics                 : BT.709
Matrix coefficients                      : BT.709

Audio
ID                                       : 2
Format                                   : DTS XLL
Format/Info                              : Digital Theater Systems
Commercial name                          : DTS-HD Master Audio
Codec ID                                 : A_DTS
Duration                                 : 1 h 36 min
Bit rate mode                            : Variable
Bit rate                                 : 3 832 kb/s
Channel(s)                               : 6 channels
Channel layout                           : C L R Ls Rs LFE
Sampling rate                            : 48.0 kHz
Frame rate                               : 93.750 FPS (512 SPF)
Bit depth                                : 24 bits
Compression mode                         : Lossless
Stream size                              : 2.59 GiB (18%)
Title                                    : DTS-HD MA 5.1
Language                                 : English
Default                                  : Yes
Forced                                   : No

Text #1
ID                                       : 3
Format                                   : PGS
Codec ID                                 : S_HDMV/PGS
Codec ID/Info                            : Picture based subtitle format used on BDs/HD-DVDs
Duration                                 : 1 h 32 min
Bit rate                                 : 19.4 kb/s
Count of elements                        : 1216
Stream size                              : 12.9 MiB (0%)
Title                                    : Danish
Language                                 : Danish
Default                                  : No
Forced                                   : No

Text #2
ID                                       : 4
Format                                   : PGS
Codec ID                                 : S_HDMV/PGS
Codec ID/Info                            : Picture based subtitle format used on BDs/HD-DVDs
Duration                                 : 1 h 32 min
Bit rate                                 : 14.1 kb/s
Count of elements                        : 1216
Stream size                              : 9.34 MiB (0%)
Title                                    : Finnish
Language                                 : Finnish
Default                                  : No
Forced                                   : No

Text #3
ID                                       : 5
Format                                   : PGS
Codec ID                                 : S_HDMV/PGS
Codec ID/Info                            : Picture based subtitle format used on BDs/HD-DVDs
Duration                                 : 1 h 32 min
Bit rate                                 : 17.8 kb/s
Count of elements                        : 1208
Stream size                              : 11.8 MiB (0%)
Title                                    : Norwegian
Language                                 : Norwegian
Default                                  : No
Forced                                   : No

Text #4
ID                                       : 6
Format                                   : PGS
Codec ID                                 : S_HDMV/PGS
Codec ID/Info                            : Picture based subtitle format used on BDs/HD-DVDs
Duration                                 : 1 h 32 min
Bit rate                                 : 19.6 kb/s
Count of elements                        : 1210
Stream size                              : 13.0 MiB (0%)
Title                                    : Swedish
Language                                 : Swedish
Default                                  : No
Forced                                   : No

Menu
00:00:00.000                             : en:Chapter 01
00:13:08.166                             : en:Chapter 02
00:25:17.583                             : en:Chapter 03
00:36:24.125                             : en:Chapter 04
00:48:48.083                             : en:Chapter 05
01:00:53.333                             : en:Chapter 06
01:12:35.625                             : en:Chapter 07
01:24:44.916                             : en:Chapter 08

Hello everyone,
We are TAoE, a small team of passionate encoders who love encoding. We try our best to provide you with high quality releases.

Requests for movies and shows are welcome.
We have a form for encode requests which can be found here
Encode requests form
submit your request and it will be added to our encoding request list
You can view our encoding request list here
Encode requests list


When or if we encode it will depend on if we can obtain a good source to encode with and
if one of the TAoE encoders chooses to encode it. Unfortunately we are not able to encode everything,
new members are welcome as that helps us encode more content!

If you would like to join TAoE submit your request here!
TAoE member applications form





.........................................................................................................................................

Category:Movies > HEVC/x265
Lang:English  English
Total Size:4.68 GB
Info Hash:8566e1ff90fb14d81848e283c2f134b12b4e2daf
Added By:Goki
Date Added:04-06-2020 03:35:19

Files

File List: 
 File Size
Sinister 2 (2015) (1080p BDRip x265 10bit DTS-HD MA 5.1 - ArcX)[TAoE].mkv4.68 GB



Comments

There are currently no comments. Be the first one to write something !